<?xml version="1.0" standalone="no"?>
<!DOCTYPE svg PUBLIC "-//W3C//DTD SVG 1.1//EN" "http://www.w3.org/Graphics/SVG/1.1/DTD/svg11.dtd" >
<svg xmlns="http://www.w3.org/2000/svg" xmlns:xlink="http://www.w3.org/1999/xlink" version="1.1">
<metadata></metadata>
<defs>
<font id="metropolisblack" horiz-adv-x="1533" >
<font-face units-per-em="2048" ascent="1628" descent="-420" />
<missing-glyph horiz-adv-x="557" />
<glyph horiz-adv-x="0" />
<glyph horiz-adv-x="682" />
<glyph unicode=" "  horiz-adv-x="557" />
<glyph unicode="&#x09;" horiz-adv-x="557" />
<glyph unicode="&#xa0;" horiz-adv-x="557" />
<glyph unicode="!" horiz-adv-x="673" d="M100 217q0 94 70.5 163t171.5 69q94 0 162.5 -69.5t68.5 -162.5q0 -100 -68 -171t-163 -71q-102 0 -172 71t-70 171zM121 1407h440l-86 -846h-266z" />
<glyph unicode="&#x22;" horiz-adv-x="1196" d="M115 1241q0 83 58 143t138 60t138.5 -60t58.5 -143q0 -132 -127 -483h-139q-127 351 -127 483zM688 1241q0 83 58.5 143t138.5 60t138 -60t58 -143q0 -132 -127 -483h-139q-127 351 -127 483z" />
<glyph unicode="#" horiz-adv-x="1384" d="M53 301l68 274h168l63 252h-174l68 275h174l78 305h276l-78 -305h189l78 305h276l-78 -305h170l-67 -275h-170l-64 -252h170l-67 -274h-172l-76 -301h-277l76 301h-188l-76 -301h-277l76 301h-166zM565 575h189l63 252h-188z" />
<glyph unicode="$" horiz-adv-x="1323" d="M16 213l222 264q218 -172 464 -172q81 0 123.5 26t42.5 72q0 48 -42 67t-201 56q-74 17 -127 31.5t-113 36t-101.5 44.5t-82 56t-64.5 71.5t-38.5 90t-14.5 113.5q0 188 123 309.5t334 146.5v129h225v-129q271 -29 463 -184l-199 -280q-196 141 -401 141 q-70 0 -107 -25.5t-37 -66.5q0 -53 48.5 -79t201.5 -59q107 -23 182.5 -45.5t146 -57t112.5 -78t67 -105t25 -140.5q0 -203 -134.5 -326.5t-367.5 -142.5v-129h-225v136q-315 43 -525 229z" />
<glyph unicode="%" horiz-adv-x="1769" d="M63 1057q0 154 101.5 259t265.5 105q165 0 267 -104.5t102 -259.5q0 -157 -103 -261t-266 -104q-162 0 -264.5 104t-102.5 261zM256 0l989 1407h271l-990 -1407h-270zM313 1057q0 -67 33 -106.5t84 -39.5q53 0 86 38.5t33 107.5q0 66 -33.5 104.5t-85.5 38.5t-84.5 -38 t-32.5 -105zM971 342q0 157 103 262t265 105q164 0 265.5 -105.5t101.5 -261.5t-103 -260.5t-264 -104.5q-164 0 -266 105.5t-102 259.5zM1221 342q0 -66 33 -104.5t85 -38.5q53 0 86 38t33 105t-34 106t-85 39q-54 0 -86 -37.5t-32 -107.5z" />
<glyph unicode="&#x26;" horiz-adv-x="1402" d="M41 391q0 138 67 226.5t226 160.5q-51 78 -69.5 135.5t-18.5 135.5q0 101 58 187.5t156 137.5t212 51q194 0 317 -105t123 -271q0 -104 -66.5 -178t-238.5 -160q97 -110 149 -168q70 105 119 219l275 -133q-92 -176 -193 -307l211 -228l-313 -139q-22 24 -66 70t-65 69 q-175 -119 -389 -119q-220 0 -357 111t-137 305zM432 420q0 -70 45.5 -113t112.5 -43q63 0 135 43q-150 164 -221 248q-72 -56 -72 -135zM571 1049q0 -42 17 -74.5t55 -77.5q82 33 112.5 64t30.5 88q0 49 -30 80.5t-76 31.5q-44 0 -76.5 -33t-32.5 -79z" />
<glyph unicode="'" horiz-adv-x="622" d="M115 1241q0 83 58 143t138 60t138.5 -60t58.5 -143q0 -132 -127 -483h-139q-127 351 -127 483z" />
<glyph unicode="(" horiz-adv-x="821" d="M88 543q0 277 126.5 509.5t352.5 381.5l199 -209q-154 -159 -222.5 -318.5t-68.5 -363.5q0 -202 68.5 -361.5t222.5 -318.5l-199 -211q-226 149 -352.5 382t-126.5 509z" />
<glyph unicode=")" horiz-adv-x="821" d="M55 -137q154 159 222.5 318.5t68.5 361.5q0 204 -68.5 363.5t-222.5 318.5l199 209q226 -149 352.5 -381.5t126.5 -509.5q0 -276 -126.5 -509t-352.5 -382z" />
<glyph unicode="*" horiz-adv-x="798" d="M54.5 932.5q8.5 37.5 39.5 54.5q31 18 111 37t104 29q-23 9 -103.5 28.5t-111.5 38.5q-31 17 -39.5 54.5t11.5 72.5t56.5 46.5t67.5 -7.5q31 -18 87.5 -79t76.5 -77q-4 24 -27.5 104.5t-23.5 117.5q0 36 28.5 62t67.5 26q40 0 68.5 -26.5t28.5 -61.5q0 -37 -25 -117 t-29 -105q22 17 79 76.5t87 77.5q31 19 68 7.5t57 -46.5t11.5 -72.5t-39.5 -54.5q-31 -18 -112.5 -36.5t-105.5 -28.5q23 -9 105 -29t113 -39q31 -17 39.5 -54.5t-11.5 -72.5t-57 -46.5t-68 7.5q-31 18 -87.5 79t-76.5 77q4 -25 29 -104.5t25 -116.5q0 -35 -28.5 -61.5 t-68.5 -26.5q-39 0 -67.5 26t-28.5 62q0 37 22.5 117t26.5 104q-22 -17 -78 -76.5t-86 -77.5q-31 -19 -67.5 -7.5t-56.5 46.5t-11.5 72.5z" />
<glyph unicode="+" horiz-adv-x="1247" d="M113 530v306h348v358h327v-358h347v-306h-347v-358h-327v358h-348z" />
<glyph unicode="," horiz-adv-x="638" d="M86 209q0 98 68.5 169t162.5 71q106 0 174 -89t68 -227q0 -112 -67 -230.5t-189 -219.5l-129 98q108 85 137 194q-92 0 -158.5 69.5t-66.5 164.5z" />
<glyph unicode="-" horiz-adv-x="737" d="M78 408v323h581v-323h-581z" />
<glyph unicode="." horiz-adv-x="643" d="M86 217q0 94 70.5 163t171.5 69q94 0 162.5 -69.5t68.5 -162.5q0 -100 -68 -171t-163 -71q-102 0 -172 71t-70 171z" />
<glyph unicode="/" horiz-adv-x="1009" d="M-59 -152l696 1674h410l-697 -1674h-409z" />
<glyph unicode="0" horiz-adv-x="1470" d="M72 705q0 210 84 376t235.5 258.5t343.5 92.5t343.5 -92.5t236 -258.5t84.5 -376q0 -211 -84.5 -378t-236 -259.5t-343.5 -92.5q-144 0 -267.5 54t-210.5 150t-136 232t-49 294zM481 705q0 -162 71 -265.5t183 -103.5t183 103.5t71 265.5q0 161 -71 263.5t-183 102.5 t-183 -102.5t-71 -263.5z" />
<glyph unicode="1" horiz-adv-x="933" d="M12 1092l471 315h318v-1407h-398v961l-235 -144z" />
<glyph unicode="2" horiz-adv-x="1280" d="M57 1153q237 279 580 279q248 0 403.5 -134t155.5 -340q0 -144 -71.5 -257.5t-252.5 -229.5l-182 -117h518v-354h-1126v322l522 376q105 76 143.5 130.5t38.5 113.5q0 58 -44.5 93.5t-114.5 35.5q-88 0 -163.5 -40.5t-160.5 -125.5z" />
<glyph unicode="3" horiz-adv-x="1267" d="M33 207l223 264q75 -71 168.5 -107t187.5 -36q92 0 141.5 30.5t49.5 79.5q0 54 -47 79t-168 24l-170 -2v331h168q190 0 190 99q0 52 -49.5 80t-136.5 28q-158 0 -307 -139l-220 244q218 250 570 250q255 0 402 -109t147 -279q0 -114 -69 -199t-189 -120 q127 -29 207.5 -114t80.5 -210q0 -189 -158 -308.5t-419 -119.5q-194 0 -346.5 62.5t-255.5 171.5z" />
<glyph unicode="4" horiz-adv-x="1361" d="M31 549l620 856h488v-827h170v-328h-170v-250h-398v250h-678zM438 578h303v421z" />
<glyph unicode="5" horiz-adv-x="1290" d="M47 184l225 279q175 -148 351 -148q97 0 150.5 43t53.5 107q0 65 -52.5 103t-145.5 38q-141 0 -246 -82l-260 99l20 784h1002v-354h-639l-6 -201q110 78 258 78q125 0 229.5 -51t170 -155.5t65.5 -244.5q0 -233 -161.5 -369.5t-438.5 -136.5q-349 0 -576 211z" />
<glyph unicode="6" horiz-adv-x="1343" d="M63 678q0 343 187.5 548.5t511.5 205.5q254 0 452 -142l-180 -299q-129 94 -268 94q-223 0 -277 -243q136 88 306 88q132 0 239.5 -53.5t172.5 -158t65 -241.5q0 -150 -76 -265.5t-204 -176t-287 -60.5q-158 0 -281 51t-201.5 144t-119 221.5t-40.5 286.5zM481 504 q14 -104 58.5 -148.5t138.5 -44.5q82 0 133 42.5t51 107.5q0 69 -57 110t-137 41q-60 0 -109 -28.5t-78 -79.5z" />
<glyph unicode="7" horiz-adv-x="1241" d="M80 1053v354h1110v-299l-543 -1108h-446l532 1053h-653z" />
<glyph unicode="8" horiz-adv-x="1302" d="M53 383q0 117 66.5 205t185.5 139q-215 101 -215 315q0 123 79.5 213.5t205 133.5t276.5 43q153 0 279.5 -44.5t205 -134t78.5 -209.5q0 -212 -217 -317q122 -54 188 -142.5t66 -201.5q0 -129 -83.5 -223.5t-217 -139.5t-299.5 -45t-299.5 45.5t-216 139.5t-82.5 223z M455 430q0 -57 53 -92t143 -35q89 0 144 35t55 92q0 52 -58.5 87t-140.5 40q-81 -5 -138.5 -40t-57.5 -87zM481 987q0 -52 49 -87t121 -40q72 5 122 41t50 86q0 51 -47 85t-125 34q-77 0 -123.5 -34t-46.5 -85z" />
<glyph unicode="9" horiz-adv-x="1343" d="M72 930q0 150 76 265.5t204 176t287 60.5q158 0 281 -51t201.5 -144t118.5 -221.5t40 -286.5q0 -343 -187 -548.5t-511 -205.5q-255 0 -453 142l180 299q129 -94 269 -94q222 0 276 243q-136 -88 -305 -88q-132 0 -239.5 53.5t-172.5 158t-65 241.5zM481 946 q0 -69 57 -110t138 -41q60 0 108.5 28.5t77.5 79.5q-14 104 -58 148.5t-138 44.5q-82 0 -133.5 -42.5t-51.5 -107.5z" />
<glyph unicode=":" horiz-adv-x="643" d="M86 217q0 94 70.5 163t171.5 69q94 0 162.5 -69.5t68.5 -162.5q0 -100 -68 -171t-163 -71q-102 0 -172 71t-70 171zM86 883q0 94 70.5 162.5t171.5 68.5q95 0 163 -69t68 -162q0 -100 -68 -171t-163 -71q-102 0 -172 71t-70 171z" />
<glyph unicode=";" horiz-adv-x="638" d="M86 209q0 98 68.5 169t162.5 71q106 0 174 -89t68 -227q0 -112 -67 -230.5t-189 -219.5l-129 98q108 85 137 194q-92 0 -158.5 69.5t-66.5 164.5zM86 883q0 94 70.5 162.5t171.5 68.5q95 0 163 -69t68 -162q0 -100 -68 -171t-163 -71q-102 0 -172 71t-70 171z" />
<glyph unicode="&#x3c;" horiz-adv-x="1222" d="M113 547v313l972 387v-307l-677 -238l677 -233v-309z" />
<glyph unicode="=" horiz-adv-x="1247" d="M113 303v305h1022v-305h-1022zM113 782v305h1022v-305h-1022z" />
<glyph unicode="&#x3e;" horiz-adv-x="1222" d="M137 160v309l678 233l-678 238v307l973 -387v-313z" />
<glyph unicode="?" horiz-adv-x="1030" d="M16 1221q96 99 222.5 155t271.5 56q212 0 346.5 -117.5t134.5 -302.5q0 -140 -92 -251.5t-237 -146.5v-73h-336v307q117 0 190.5 35t73.5 90q0 46 -44.5 75t-113.5 29q-49 0 -105 -22.5t-94 -57.5zM252 217q0 94 70.5 163t171.5 69q94 0 162.5 -69.5t68.5 -162.5 q0 -100 -68 -171t-163 -71q-102 0 -172 71t-70 171z" />
<glyph unicode="@" horiz-adv-x="1800" d="M88 532q0 171 68.5 328t183.5 272t274.5 183.5t333.5 68.5q165 0 309 -57t243 -153t155.5 -223.5t56.5 -266.5q0 -107 -27 -197.5t-71.5 -152t-103 -105.5t-120.5 -64t-124 -20q-200 0 -267 154q-115 -149 -282 -149q-157 0 -252.5 106t-95.5 276q0 135 62 253 t165.5 187.5t220.5 69.5q173 0 262 -133l23 107l319 -25q-21 -111 -44.5 -224.5t-33.5 -162t-17 -94.5t-7 -78q0 -46 26 -72t70 -26q84 0 143.5 93t59.5 257q0 129 -49 242t-136.5 195t-214 129.5t-274.5 47.5q-158 0 -301 -61t-245 -163.5t-162 -243.5t-60 -295 q0 -192 88 -349t248.5 -248.5t361.5 -91.5q227 0 435 125l45 -67q-226 -142 -486 -142q-166 0 -311.5 60t-248 163t-161.5 245.5t-59 301.5zM698 559q0 -68 38.5 -106.5t101.5 -38.5q72 0 124.5 58.5t59.5 150.5q6 69 -28.5 112t-96.5 43q-88 0 -143.5 -65.5t-55.5 -153.5z " />
<glyph unicode="A" d="M2 0l541 1407h448l541 -1407h-449l-71 188h-490l-71 -188h-449zM635 481h264l-131 342z" />
<glyph unicode="B" horiz-adv-x="1456" d="M123 0v1407h758q200 0 327 -100t127 -254q0 -104 -51 -188t-143 -128q123 -53 191.5 -147t68.5 -211q0 -168 -138 -273.5t-354 -105.5h-786zM518 334h326q65 0 106 31.5t41 80.5q0 50 -41.5 81.5t-105.5 31.5h-326v-225zM518 860h266q61 0 101.5 30.5t40.5 76.5t-40.5 76 t-101.5 30h-266v-213z" />
<glyph unicode="C" horiz-adv-x="1445" d="M70 705q0 145 61.5 279.5t165 232.5t245 156.5t294.5 58.5q166 0 314.5 -66t256.5 -182l-293 -256q-51 66 -124 104.5t-154 38.5q-145 0 -251 -108.5t-106 -257.5q0 -150 106 -259.5t251 -109.5q82 0 154.5 38t125.5 105l291 -254q-108 -117 -256.5 -183.5t-314.5 -66.5 q-204 0 -381 99.5t-281 268t-104 362.5z" />
<glyph unicode="D" horiz-adv-x="1556" d="M123 0v1407h524q243 0 434.5 -89t298.5 -249.5t107 -363.5q0 -152 -62.5 -283.5t-172.5 -224t-266.5 -145t-338.5 -52.5h-524zM520 360h193q160 0 262 97t102 248t-102 246.5t-262 95.5h-193v-687z" />
<glyph unicode="E" horiz-adv-x="1333" d="M123 0v1407h1132v-354h-735v-158h670v-354h-670v-187h735v-354h-1132z" />
<glyph unicode="F" horiz-adv-x="1333" d="M123 0v1407h1132v-354h-735v-199h670v-354h-670v-500h-397z" />
<glyph unicode="G" horiz-adv-x="1517" d="M70 705q0 145 62.5 279.5t167 232.5t248 156.5t298.5 58.5q166 0 319 -65.5t262 -182.5l-292 -256q-53 68 -128.5 105.5t-160.5 37.5q-149 0 -258 -108.5t-109 -257.5q0 -151 109 -260t258 -109q105 0 196 57v137h-274v293h659v-598q-109 -118 -262 -184t-319 -66 q-155 0 -298.5 59t-248 157.5t-167 233.5t-62.5 280z" />
<glyph unicode="H" horiz-adv-x="1554" d="M123 0v1407h397v-512h514v512h398v-1407h-398v541h-514v-541h-397z" />
<glyph unicode="I" horiz-adv-x="657" d="M131 0v1407h397v-1407h-397z" />
<glyph unicode="J" horiz-adv-x="1122" d="M6 209l256 250q29 -54 82 -88.5t107 -34.5q72 0 118.5 46t46.5 118v907h398v-948q0 -212 -143 -348t-367 -136q-143 0 -283 65.5t-215 168.5z" />
<glyph unicode="K" horiz-adv-x="1484" d="M123 0v1407h397v-555l473 555h469l-520 -588l561 -819h-475l-362 532l-146 -159v-373h-397z" />
<glyph unicode="L" horiz-adv-x="1222" d="M123 0v1407h397v-1053h656v-354h-1053z" />
<glyph unicode="M" horiz-adv-x="1794" d="M123 0v1407h397l377 -672l377 672h397v-1407h-397v754l-377 -672l-377 672v-754h-397z" />
<glyph unicode="N" horiz-adv-x="1589" d="M123 0v1407h397l549 -754v754h397v-1407h-397l-549 754v-754h-397z" />
<glyph unicode="O" horiz-adv-x="1669" d="M70 705q0 145 61.5 279.5t165 232.5t245 156.5t294.5 58.5t294.5 -58.5t245 -156.5t165 -232.5t61.5 -279.5q0 -194 -104 -362.5t-281 -268t-381 -99.5t-381 99.5t-281 268t-104 362.5zM479 705q0 -150 106 -259.5t251 -109.5t250.5 109t105.5 260q0 149 -105.5 257.5 t-250.5 108.5t-251 -108.5t-106 -257.5z" />
<glyph unicode="P" horiz-adv-x="1372" d="M123 0v1407h674q236 0 387 -137.5t151 -354.5q0 -216 -150.5 -353.5t-387.5 -137.5h-277v-424h-397zM520 784h244q70 0 116 37t46 94t-46 94.5t-116 37.5h-244v-263z" />
<glyph unicode="Q" horiz-adv-x="1669" d="M70 705q0 145 61.5 279.5t165 232.5t245 156.5t294.5 58.5t294.5 -58.5t245 -156.5t165 -232.5t61.5 -279.5q0 -208 -121 -388l116 -100l-186 -217l-131 115q-202 -140 -444 -140q-204 0 -381 99.5t-281 268t-104 362.5zM479 705q0 -150 106 -259.5t251 -109.5 q77 0 149 35l-125 108l187 217l127 -110q18 59 18 119q0 149 -105.5 257.5t-250.5 108.5t-251 -108.5t-106 -257.5z" />
<glyph unicode="R" horiz-adv-x="1427" d="M123 0v1407h674q236 0 387 -137.5t151 -354.5q0 -149 -73.5 -263t-204.5 -175l336 -477h-453l-297 424h-123v-424h-397zM520 784h244q70 0 116 37t46 94t-46 94.5t-116 37.5h-244v-263z" />
<glyph unicode="S" horiz-adv-x="1323" d="M16 213l222 264q218 -172 464 -172q81 0 123.5 26t42.5 72q0 48 -42 67t-201 56q-74 17 -127 31.5t-113 36t-101.5 44.5t-82 56t-64.5 71.5t-38.5 90t-14.5 113.5q0 210 152 336.5t403 126.5q352 0 590 -191l-199 -280q-196 141 -401 141q-70 0 -107 -25.5t-37 -66.5 q0 -53 48.5 -79t201.5 -59q107 -23 182.5 -45.5t146 -57t112.5 -78t67 -105t25 -140.5q0 -221 -156.5 -346t-423.5 -125q-193 0 -366.5 60.5t-305.5 177.5z" />
<glyph unicode="T" horiz-adv-x="1320" d="M47 1053v354h1229v-354h-416v-1053h-397v1053h-416z" />
<glyph unicode="U" horiz-adv-x="1558" d="M111 625v782h397v-762q0 -135 76 -222t196 -87t196.5 87t76.5 222v762h397v-782q0 -188 -85 -336.5t-238 -231t-347 -82.5t-346.5 82.5t-237.5 231t-85 336.5z" />
<glyph unicode="V" d="M2 1407h449l317 -823l315 823h449l-541 -1407h-448z" />
<glyph unicode="W" horiz-adv-x="2203" d="M16 1407h428l172 -813l273 813h428l270 -813l172 813h428l-389 -1407h-401l-293 813l-295 -813h-401z" />
<glyph unicode="X" horiz-adv-x="1476" d="M8 0l500 700l-500 707h465l268 -379l271 379h456l-499 -700l499 -707h-464l-269 379l-270 -379h-457z" />
<glyph unicode="Y" horiz-adv-x="1452" d="M-12 1407h454l285 -571l301 571h436l-538 -944v-463h-398v463z" />
<glyph unicode="Z" horiz-adv-x="1382" d="M82 297l668 756h-652v354h1196v-297l-663 -756h674v-354h-1221z" />
<glyph unicode="[" horiz-adv-x="815" d="M131 -328v1739h604v-248h-303v-1243h303v-248h-604z" />
<glyph unicode="\" horiz-adv-x="1009" d="M-37 1522h410l696 -1674h-410z" />
<glyph unicode="]" horiz-adv-x="815" d="M80 -80h303v1243h-303v248h604v-1739h-604v248z" />
<glyph unicode="^" horiz-adv-x="995" d="M74 846l293 561h264l291 -561h-267l-159 328l-158 -328h-264z" />
<glyph unicode="_" horiz-adv-x="1212" d="M-4 -125h1221v-201h-1221v201z" />
<glyph unicode="`" horiz-adv-x="827" d="M129 1454l340 57l229 -335h-258z" />
<glyph unicode="a" horiz-adv-x="1202" d="M47 313q0 154 131.5 253.5t325.5 99.5q105 0 223 -48v7q0 76 -61 121t-156 45q-70 0 -126 -17t-130 -55l-121 239q248 125 483 125q135 0 245.5 -53t177.5 -159t67 -246v-625h-379v76q-110 -101 -272 -101q-173 0 -290.5 95.5t-117.5 242.5zM422 324q0 -51 36 -83t93 -32 q71 0 120.5 29t55.5 75v101q-66 32 -168 32q-60 0 -98.5 -34t-38.5 -88z" />
<glyph unicode="b" horiz-adv-x="1380" d="M104 0v1432h396v-498q133 149 338 149q214 0 349.5 -155t135.5 -398q0 -245 -135.5 -400t-349.5 -155q-204 0 -338 150v-125h-396zM500 530q0 -100 59.5 -163.5t153.5 -63.5q103 0 168 63.5t65 163.5q0 99 -65.5 162.5t-167.5 63.5q-93 0 -153 -63.5t-60 -162.5z" />
<glyph unicode="c" horiz-adv-x="1130" d="M55 530q0 148 81.5 275.5t220 202.5t298.5 75q137 0 249.5 -52t191.5 -144l-260 -213q-31 36 -83 59t-102 23q-89 0 -154 -66.5t-65 -157.5q0 -94 65 -161.5t156 -67.5q51 0 104 23.5t85 60.5l260 -209q-175 -203 -453 -203q-118 0 -228 44.5t-190 119.5t-128 177.5 t-48 213.5z" />
<glyph unicode="d" horiz-adv-x="1380" d="M57 530q0 243 136 398t350 155q205 0 338 -149v498h395v-1432h-395v125q-134 -150 -338 -150q-214 0 -350 155.5t-136 399.5zM434 530q0 -100 65.5 -163.5t168.5 -63.5q94 0 153.5 63.5t59.5 163.5q0 99 -60 162.5t-153 63.5q-103 0 -168.5 -64t-65.5 -162z" />
<glyph unicode="e" horiz-adv-x="1208" d="M55 532q0 243 156.5 397t402.5 154q255 0 398 -170.5t143 -476.5h-749q24 -76 79 -121t129 -45q124 0 236 88l217 -219q-71 -72 -193 -118t-243 -46q-253 0 -414.5 156t-161.5 401zM412 643h385q-22 67 -70.5 106t-112.5 39q-69 0 -122 -39t-80 -106z" />
<glyph unicode="f" horiz-adv-x="815" d="M37 748v311h133v57q0 158 100 258.5t258 100.5q70 0 146.5 -30.5t126.5 -78.5l-68 -229q-33 30 -96 30q-40 0 -65 -30.5t-25 -77.5h209v-311h-209v-748h-377v748h-133z" />
<glyph unicode="g" horiz-adv-x="1345" d="M57 582q0 108 36 202t97.5 159.5t146 102.5t179.5 37t186.5 -39.5t141.5 -101.5v117h397v-946q0 -204 -169 -334.5t-433 -130.5q-144 0 -275.5 39t-218.5 102l129 272q46 -38 129.5 -62t171.5 -24q118 0 193.5 45t75.5 113v84q-63 -66 -149.5 -102.5t-178.5 -36.5 q-194 0 -326.5 142.5t-132.5 361.5zM463 582q0 -77 53.5 -126.5t136.5 -49.5t137 49.5t54 126.5q0 76 -54 125t-137 49t-136.5 -49t-53.5 -125z" />
<glyph unicode="h" horiz-adv-x="1286" d="M104 0v1432h396v-480q50 62 127.5 96.5t171.5 34.5q170 0 279.5 -114.5t109.5 -294.5v-674h-377v582q0 77 -45 125.5t-115 48.5q-66 0 -108.5 -45.5t-42.5 -116.5v-594h-396z" />
<glyph unicode="i" horiz-adv-x="622" d="M109 1376q0 81 59.5 141t144.5 60q82 0 141.5 -60.5t59.5 -140.5q0 -84 -59 -144.5t-142 -60.5q-85 0 -144.5 60.5t-59.5 144.5zM113 0v1059h395v-1059h-395z" />
<glyph unicode="j" horiz-adv-x="622" d="M-111 -315l37 284q40 -16 97 -16q40 0 65 30.5t25 77.5v998h395v-1047q0 -166 -105.5 -271.5t-271.5 -105.5q-63 0 -131 14t-111 36zM109 1376q0 81 59.5 141t144.5 60q82 0 141.5 -60.5t59.5 -140.5q0 -84 -59 -144.5t-142 -60.5q-85 0 -144.5 60.5t-59.5 144.5z" />
<glyph unicode="k" horiz-adv-x="1208" d="M104 0v1432h396v-746l272 373h442l-370 -457l379 -602h-443l-194 350l-86 -106v-244h-396z" />
<glyph unicode="l" horiz-adv-x="620" d="M113 0v1432h395v-1432h-395z" />
<glyph unicode="m" horiz-adv-x="1949" d="M104 0v1059h396v-129q39 72 110.5 112.5t163.5 40.5q103 0 190.5 -46t141.5 -128q46 80 137 127t207 47q168 0 284.5 -116t116.5 -293v-676h-376v604q0 68 -42 111t-108 43t-107.5 -40t-41.5 -102v-616h-377v604q0 68 -42 111t-108 43t-107.5 -40t-41.5 -102v-614h-396z " />
<glyph unicode="n" horiz-adv-x="1286" d="M104 0v1059h396v-107q50 62 127.5 96.5t171.5 34.5q170 0 279.5 -114.5t109.5 -294.5v-674h-377v582q0 77 -45 125.5t-115 48.5q-66 0 -108.5 -45.5t-42.5 -116.5v-594h-396z" />
<glyph unicode="o" horiz-adv-x="1302" d="M55 530q0 148 81 275.5t219 202.5t298 75q159 0 296.5 -75t218.5 -202.5t81 -275.5t-81 -276t-218.5 -203.5t-296.5 -75.5q-160 0 -298 75.5t-219 203.5t-81 276zM424 530q0 -92 67.5 -159.5t161.5 -67.5q92 0 160 67.5t68 159.5t-68 159t-160 67q-94 0 -161.5 -67 t-67.5 -159z" />
<glyph unicode="p" horiz-adv-x="1380" d="M104 -352v1411h396v-125q133 149 338 149q214 0 349.5 -155t135.5 -398q0 -245 -135.5 -400t-349.5 -155q-204 0 -338 150v-477h-396zM500 530q0 -100 59.5 -163.5t153.5 -63.5q103 0 168 63.5t65 163.5q0 99 -65.5 162.5t-167.5 63.5q-93 0 -153 -63.5t-60 -162.5z" />
<glyph unicode="q" horiz-adv-x="1380" d="M57 530q0 243 136 398t350 155q205 0 338 -149v125h395v-1411h-395v477q-134 -150 -338 -150q-214 0 -350 155.5t-136 399.5zM434 530q0 -100 65.5 -163.5t168.5 -63.5q94 0 153.5 63.5t59.5 163.5q0 99 -60 162.5t-153 63.5q-103 0 -168.5 -64t-65.5 -162z" />
<glyph unicode="r" horiz-adv-x="862" d="M104 0v1059h396v-189q53 100 139 156.5t192 56.5v-327q-157 0 -244 -81t-87 -226v-449h-396z" />
<glyph unicode="s" horiz-adv-x="1036" d="M23 135l147 240q77 -54 180 -89.5t187 -35.5q54 0 77 13t23 40q0 26 -40 44t-120 34q-54 12 -84 19t-80 22t-78.5 30.5t-64 41.5t-54.5 56t-32.5 73.5t-13.5 95.5q0 158 120 261t322 103q232 0 442 -139l-133 -242q-174 113 -309 113q-40 0 -66 -17.5t-26 -41.5 q0 -21 24.5 -31.5t92.5 -26.5q23 -5 36 -8q49 -11 84 -20t81.5 -25.5t79 -34t66.5 -45t55 -59.5t34.5 -76t13.5 -96q0 -165 -123.5 -262t-337.5 -97q-138 0 -272 42.5t-231 117.5z" />
<glyph unicode="t" horiz-adv-x="851" d="M37 748v311h133v291h377v-291h209v-311h-209v-336q0 -47 25 -78t65 -31q62 0 96 31l68 -250q-50 -48 -126.5 -78.5t-146.5 -30.5q-158 0 -258 100.5t-100 258.5v414h-133z" />
<glyph unicode="u" horiz-adv-x="1286" d="M98 385v674h377v-582q0 -77 45 -125.5t115 -48.5q66 0 108.5 45.5t42.5 116.5v594h396v-1059h-396v106q-50 -62 -127.5 -96.5t-171.5 -34.5q-170 0 -279.5 115t-109.5 295z" />
<glyph unicode="v" horiz-adv-x="1300" d="M8 1059h406l239 -606l234 606h405l-456 -1059h-365z" />
<glyph unicode="w" horiz-adv-x="1734" d="M14 1059h379l158 -529l156 529h323l158 -529l155 529h379l-360 -1059h-350l-144 545l-139 -545h-350z" />
<glyph unicode="x" horiz-adv-x="1179" d="M6 0l377 541l-358 518h417l152 -219l151 219h408l-356 -512l377 -547h-418l-170 246l-172 -246h-408z" />
<glyph unicode="y" horiz-adv-x="1243" d="M10 1059h404l217 -653l205 653h397l-399 -1067q-65 -170 -176 -265.5t-246 -95.5q-80 0 -173 24t-157 62l80 254q99 -59 149 -59q36 0 67 9.5t40 23.5l20 41z" />
<glyph unicode="z" horiz-adv-x="1114" d="M68 0v272l469 459h-455v328h967l-2 -273l-469 -458h475v-328h-985z" />
<glyph unicode="{" horiz-adv-x="849" d="M53 432v225q104 0 148.5 39t44.5 127l-4 217q0 187 121.5 277.5t398.5 109.5l31 -231q-155 -19 -202.5 -54t-47.5 -132l2 -236q0 -177 -162 -229q162 -52 162 -232l-2 -233q0 -98 48.5 -134t201.5 -55l-31 -231q-278 19 -399 110t-121 277l4 219q0 88 -46 127t-147 39z " />
<glyph unicode="|" horiz-adv-x="641" d="M188 -152v1674h265v-1674h-265z" />
<glyph unicode="}" horiz-adv-x="849" d="M57 -109q153 19 201.5 55t48.5 134l-2 233q0 180 162 232q-162 52 -162 229l2 236q0 97 -47.5 132t-202.5 54l31 231q277 -19 398.5 -109.5t121.5 -277.5l-4 -217q0 -88 44.5 -127t148.5 -39v-225q-101 0 -147 -39t-46 -127l4 -219q0 -186 -121 -277t-399 -110z" />
<glyph unicode="~" horiz-adv-x="935" d="M78 618q17 148 77 218.5t171 70.5q48 0 104.5 -21t102 -42t65.5 -21q58 0 76 86l184 -26q-15 -147 -75.5 -218t-172.5 -71q-49 0 -105 21t-101 42t-66 21q-59 0 -76 -86z" />
<glyph unicode="&#xa1;" horiz-adv-x="673" d="M100 842q0 100 68.5 170.5t163.5 70.5q102 0 171.5 -70.5t69.5 -170.5q0 -94 -70 -163t-171 -69q-95 0 -163.5 69.5t-68.5 162.5zM113 -348l86 846h266l88 -846h-440z" />
<glyph unicode="&#xa2;" horiz-adv-x="1130" d="M55 530q0 191 132 342.5t331 196.5v137h225v-129q215 -29 353 -190l-260 -213q-31 36 -83 59t-102 23q-89 0 -154 -66.5t-65 -157.5q0 -94 65 -161.5t156 -67.5q51 0 104 23.5t85 60.5l260 -209q-141 -163 -359 -196v-134h-225v142q-198 43 -330.5 195.5t-132.5 344.5z " />
<glyph unicode="&#xa3;" horiz-adv-x="1386" d="M82 0v156l205 137v219h-152v178h152v258q0 212 143 348t367 136q143 0 282.5 -65.5t214.5 -168.5l-256 -250q-29 54 -81.5 88.5t-106.5 34.5q-72 0 -119 -46t-47 -118v-217h281v-178h-281v-219h655v-293h-1257z" />
<glyph unicode="&#xa5;" horiz-adv-x="1452" d="M-12 1407h454l285 -571l301 571h436l-432 -758h203v-178h-305l-4 -8v-101h309v-178h-309v-184h-398v184h-309v178h309v101l-4 8h-305v178h203z" />
<glyph unicode="&#xa8;" horiz-adv-x="1073" d="M129 1356q0 72 51.5 124t126.5 52q72 0 124 -52.5t52 -123.5q0 -73 -52 -125.5t-124 -52.5q-76 0 -127 52t-51 126zM590 1356q0 71 52 123.5t126 52.5q73 0 124.5 -52.5t51.5 -123.5q0 -74 -51.5 -126t-124.5 -52q-75 0 -126.5 52t-51.5 126z" />
<glyph unicode="&#xad;" horiz-adv-x="737" d="M78 408v323h581v-323h-581z" />
<glyph unicode="&#xaf;" horiz-adv-x="1013" d="M129 1174v217h756v-217h-756z" />
<glyph unicode="&#xb4;" horiz-adv-x="827" d="M129 1176l229 335l340 -57l-311 -278h-258z" />
<glyph unicode="&#xb8;" horiz-adv-x="696" d="M129 -348l64 139q57 -47 118 -47q31 0 52.5 13.5t21.5 37.5q0 45 -57 45q-30 0 -56 -16l-53 49l64 150h182l-47 -109q67 -3 108 -42.5t41 -98.5q0 -85 -65 -134t-170 -49q-57 0 -111.5 17.5t-91.5 44.5z" />
<glyph unicode="&#xbf;" horiz-adv-x="1030" d="M39 47q0 139 92.5 250.5t237.5 146.5v74h336v-307q-117 0 -191 -35t-74 -90q0 -46 44.5 -75t113.5 -29q50 0 105.5 22t93.5 57l217 -223q-96 -99 -222.5 -155t-271.5 -56q-212 0 -346.5 117.5t-134.5 302.5zM305 842q0 100 68.5 170.5t163.5 70.5q102 0 171.5 -70.5 t69.5 -170.5q0 -94 -70 -163t-171 -69q-95 0 -163.5 69.5t-68.5 162.5z" />
<glyph unicode="&#xc0;" d="M2 0l541 1407h448l541 -1407h-449l-71 188h-490l-71 -188h-449zM338 1802l340 58l229 -336h-258zM635 481h264l-131 342z" />
<glyph unicode="&#xc1;" d="M2 0l541 1407h448l541 -1407h-449l-71 188h-490l-71 -188h-449zM633 1524l229 336l340 -58l-311 -278h-258zM635 481h264l-131 342z" />
<glyph unicode="&#xc2;" d="M2 0l541 1407h448l541 -1407h-449l-71 188h-490l-71 -188h-449zM389 1524l221 315h318l223 -315h-231l-152 137l-150 -137h-229zM635 481h264l-131 342z" />
<glyph unicode="&#xc3;" d="M2 0l541 1407h448l541 -1407h-449l-71 188h-490l-71 -188h-449zM377 1542q17 148 77 218.5t171 70.5q48 0 104.5 -21t102 -42t65.5 -21q58 0 76 86l184 -27q-15 -147 -75.5 -217.5t-172.5 -70.5q-49 0 -105 21t-101 42t-66 21q-59 0 -76 -86zM635 481h264l-131 342z" />
<glyph unicode="&#xc4;" d="M2 0l541 1407h448l541 -1407h-449l-71 188h-490l-71 -188h-449zM360 1704q0 72 52 124t127 52q72 0 124 -52.5t52 -123.5q0 -73 -52 -125.5t-124 -52.5q-76 0 -127.5 52t-51.5 126zM635 481h264l-131 342zM821 1704q0 71 52 123.5t126 52.5q73 0 125 -52.5t52 -123.5 q0 -74 -52 -126t-125 -52q-75 0 -126.5 52t-51.5 126z" />
<glyph unicode="&#xc5;" d="M2 0l541 1407h448l541 -1407h-449l-71 188h-490l-71 -188h-449zM520 1774q0 102 73 174.5t175 72.5q103 0 175.5 -72t72.5 -175t-72.5 -175.5t-175.5 -72.5q-102 0 -175 73t-73 175zM635 481h264l-131 342zM668 1774q0 -41 29.5 -71t70.5 -30t70.5 30t29.5 71t-29.5 70.5 t-70.5 29.5t-70.5 -29.5t-29.5 -70.5z" />
<glyph unicode="&#xc6;" horiz-adv-x="2279" d="M2 0l813 1407h1387v-354h-736v-158h670v-354h-670v-187h736v-354h-1133v188h-500l-108 -188h-459zM739 481h330v572z" />
<glyph unicode="&#xc7;" horiz-adv-x="1445" d="M70 705q0 145 61.5 279.5t165 232.5t245 156.5t294.5 58.5q166 0 314.5 -66t256.5 -182l-293 -256q-51 66 -124 104.5t-154 38.5q-145 0 -251 -108.5t-106 -257.5q0 -150 106 -259.5t251 -109.5q82 0 154.5 38t125.5 105l291 -254q-97 -105 -227 -170t-277 -78l-29 -63 q67 -3 108.5 -42.5t41.5 -98.5q0 -85 -65.5 -134t-170.5 -49q-57 0 -111 17.5t-91 44.5l63 139q57 -47 119 -47q31 0 52.5 13.5t21.5 37.5q0 21 -15.5 33t-42.5 12q-29 0 -55 -16l-53 49l47 111q-135 20 -255.5 85t-208 160.5t-138.5 219.5t-51 256z" />
<glyph unicode="&#xc8;" horiz-adv-x="1333" d="M123 0v1407h1132v-354h-735v-158h670v-354h-670v-187h735v-354h-1132zM344 1802l340 58l229 -336h-258z" />
<glyph unicode="&#xc9;" horiz-adv-x="1333" d="M123 0v1407h1132v-354h-735v-158h670v-354h-670v-187h735v-354h-1132zM446 1524l230 336l340 -58l-311 -278h-259z" />
<glyph unicode="&#xca;" horiz-adv-x="1333" d="M123 0v1407h1132v-354h-735v-158h670v-354h-670v-187h735v-354h-1132zM311 1524l221 315h318l223 -315h-231l-152 137l-149 -137h-230z" />
<glyph unicode="&#xcb;" horiz-adv-x="1333" d="M123 0v1407h1132v-354h-735v-158h670v-354h-670v-187h735v-354h-1132zM283 1704q0 72 51.5 124t126.5 52q72 0 124 -52.5t52 -123.5q0 -73 -52 -125.5t-124 -52.5q-76 0 -127 52t-51 126zM743 1704q0 71 52.5 123.5t126.5 52.5q73 0 124.5 -52.5t51.5 -123.5 q0 -74 -51.5 -126t-124.5 -52q-75 0 -127 52t-52 126z" />
<glyph unicode="&#xcc;" horiz-adv-x="657" d="M-111 1802l340 58l230 -336h-258zM131 0v1407h397v-1407h-397z" />
<glyph unicode="&#xcd;" horiz-adv-x="657" d="M131 0v1407h397v-1407h-397zM197 1524l229 336l340 -58l-311 -278h-258z" />
<glyph unicode="&#xce;" horiz-adv-x="657" d="M-49 1524l221 315h317l224 -315h-232l-151 137l-150 -137h-229zM131 0v1407h397v-1407h-397z" />
<glyph unicode="&#xcf;" horiz-adv-x="657" d="M-78 1704q0 72 51.5 124t126.5 52q72 0 124 -52.5t52 -123.5q0 -73 -52 -125.5t-124 -52.5q-76 0 -127 52t-51 126zM131 0v1407h397v-1407h-397zM383 1704q0 71 52 123.5t126 52.5q73 0 124.5 -52.5t51.5 -123.5q0 -74 -51.5 -126t-124.5 -52q-75 0 -126.5 52t-51.5 126z " />
<glyph unicode="&#xd0;" horiz-adv-x="1675" d="M82 528v355h160v524h524q243 0 434.5 -89t298.5 -249.5t107 -363.5q0 -152 -62.5 -283.5t-172.5 -224t-266.5 -145t-338.5 -52.5h-524v528h-160zM639 360h192q160 0 262.5 97t102.5 248q0 150 -102.5 246t-262.5 96h-192v-164h260l-2 -355h-258v-168z" />
<glyph unicode="&#xd1;" horiz-adv-x="1589" d="M123 0v1407h397l549 -754v754h397v-1407h-397l-549 754v-754h-397zM403 1542q17 148 77 218.5t171 70.5q48 0 104.5 -21t102.5 -42t66 -21q57 0 75 86l185 -27q-15 -147 -75.5 -217.5t-172.5 -70.5q-49 0 -105 21t-101 42t-66 21q-59 0 -76 -86z" />
<glyph unicode="&#xd2;" horiz-adv-x="1669" d="M70 705q0 145 61.5 279.5t165 232.5t245 156.5t294.5 58.5t294.5 -58.5t245 -156.5t165 -232.5t61.5 -279.5q0 -194 -104 -362.5t-281 -268t-381 -99.5t-381 99.5t-281 268t-104 362.5zM397 1802l340 58l230 -336h-258zM479 705q0 -150 106 -259.5t251 -109.5t250.5 109 t105.5 260q0 149 -105.5 257.5t-250.5 108.5t-251 -108.5t-106 -257.5z" />
<glyph unicode="&#xd3;" horiz-adv-x="1669" d="M70 705q0 145 61.5 279.5t165 232.5t245 156.5t294.5 58.5t294.5 -58.5t245 -156.5t165 -232.5t61.5 -279.5q0 -194 -104 -362.5t-281 -268t-381 -99.5t-381 99.5t-281 268t-104 362.5zM479 705q0 -150 106 -259.5t251 -109.5t250.5 109t105.5 260q0 149 -105.5 257.5 t-250.5 108.5t-251 -108.5t-106 -257.5zM696 1524l230 336l340 -58l-312 -278h-258z" />
<glyph unicode="&#xd4;" horiz-adv-x="1669" d="M70 705q0 145 61.5 279.5t165 232.5t245 156.5t294.5 58.5t294.5 -58.5t245 -156.5t165 -232.5t61.5 -279.5q0 -194 -104 -362.5t-281 -268t-381 -99.5t-381 99.5t-281 268t-104 362.5zM457 1524l221 315h317l224 -315h-232l-151 137l-150 -137h-229zM479 705 q0 -150 106 -259.5t251 -109.5t250.5 109t105.5 260q0 149 -105.5 257.5t-250.5 108.5t-251 -108.5t-106 -257.5z" />
<glyph unicode="&#xd5;" horiz-adv-x="1669" d="M70 705q0 145 61.5 279.5t165 232.5t245 156.5t294.5 58.5t294.5 -58.5t245 -156.5t165 -232.5t61.5 -279.5q0 -194 -104 -362.5t-281 -268t-381 -99.5t-381 99.5t-281 268t-104 362.5zM444 1542q17 148 77 218.5t171 70.5q48 0 104.5 -21t102.5 -42t66 -21q57 0 75 86 l185 -27q-15 -147 -75.5 -217.5t-172.5 -70.5q-49 0 -105 21t-101 42t-66 21q-59 0 -76 -86zM479 705q0 -150 106 -259.5t251 -109.5t250.5 109t105.5 260q0 149 -105.5 257.5t-250.5 108.5t-251 -108.5t-106 -257.5z" />
<glyph unicode="&#xd6;" horiz-adv-x="1669" d="M70 705q0 145 61.5 279.5t165 232.5t245 156.5t294.5 58.5t294.5 -58.5t245 -156.5t165 -232.5t61.5 -279.5q0 -194 -104 -362.5t-281 -268t-381 -99.5t-381 99.5t-281 268t-104 362.5zM428 1704q0 72 51.5 124t126.5 52q72 0 124 -52.5t52 -123.5q0 -73 -52 -125.5 t-124 -52.5q-76 0 -127 52t-51 126zM479 705q0 -150 106 -259.5t251 -109.5t250.5 109t105.5 260q0 149 -105.5 257.5t-250.5 108.5t-251 -108.5t-106 -257.5zM889 1704q0 71 52 123.5t126 52.5q73 0 124.5 -52.5t51.5 -123.5q0 -74 -51.5 -126t-124.5 -52q-75 0 -126.5 52 t-51.5 126z" />
<glyph unicode="&#xd7;" horiz-adv-x="1175" d="M111 930l231 231l254 -252l244 244l217 -217l-244 -244l252 -254l-231 -231l-252 254l-248 -248l-217 217l248 248z" />
<glyph unicode="&#xd8;" horiz-adv-x="1669" d="M70 705q0 145 61.5 279.5t165 232.5t245 156.5t294.5 58.5q190 0 364 -91l55 66h328l-180 -219q94 -99 146.5 -223.5t52.5 -259.5q0 -194 -104 -362.5t-281 -268t-381 -99.5q-191 0 -365 91l-55 -66h-328l182 219q-95 98 -147.5 224t-52.5 262zM479 705q0 -97 45 -179 l434 523q-61 22 -122 22q-145 0 -251 -108.5t-106 -257.5zM713 358q61 -22 123 -22q145 0 250.5 109t105.5 260q0 94 -45 176z" />
<glyph unicode="&#xd9;" horiz-adv-x="1558" d="M111 625v782h397v-762q0 -135 76 -222t196 -87t196.5 87t76.5 222v762h397v-782q0 -188 -85 -336.5t-238 -231t-347 -82.5t-346.5 82.5t-237.5 231t-85 336.5zM434 1802l340 58l230 -336h-259z" />
<glyph unicode="&#xda;" horiz-adv-x="1558" d="M111 625v782h397v-762q0 -135 76 -222t196 -87t196.5 87t76.5 222v762h397v-782q0 -188 -85 -336.5t-238 -231t-347 -82.5t-346.5 82.5t-237.5 231t-85 336.5zM537 1524l229 336l340 -58l-311 -278h-258z" />
<glyph unicode="&#xdb;" horiz-adv-x="1558" d="M111 625v782h397v-762q0 -135 76 -222t196 -87t196.5 87t76.5 222v762h397v-782q0 -188 -85 -336.5t-238 -231t-347 -82.5t-346.5 82.5t-237.5 231t-85 336.5zM401 1524l222 315h317l223 -315h-231l-152 137l-149 -137h-230z" />
<glyph unicode="&#xdc;" horiz-adv-x="1558" d="M111 625v782h397v-762q0 -135 76 -222t196 -87t196.5 87t76.5 222v762h397v-782q0 -188 -85 -336.5t-238 -231t-347 -82.5t-346.5 82.5t-237.5 231t-85 336.5zM373 1704q0 72 51.5 124t126.5 52q72 0 124 -52.5t52 -123.5q0 -73 -52 -125.5t-124 -52.5q-76 0 -127 52 t-51 126zM834 1704q0 71 52 123.5t126 52.5q73 0 124.5 -52.5t51.5 -123.5q0 -74 -51.5 -126t-124.5 -52q-75 0 -126.5 52t-51.5 126z" />
<glyph unicode="&#xdd;" horiz-adv-x="1452" d="M-12 1407h454l285 -571l301 571h436l-538 -944v-463h-398v463zM483 1524l230 336l340 -58l-312 -278h-258z" />
<glyph unicode="&#xde;" horiz-adv-x="1372" d="M123 0v1407h387v-209h287q237 0 387.5 -137.5t150.5 -353.5q0 -217 -151 -354.5t-387 -137.5h-277v-215h-397zM520 575h244q70 0 116 37.5t46 94.5t-46 94t-116 37h-244v-263z" />
<glyph unicode="&#xdf;" horiz-adv-x="1306" d="M104 0v1053q0 189 153 309.5t392 120.5t392 -120.5t153 -309.5q0 -103 -51.5 -187.5t-143.5 -128.5q123 -53 192 -147t69 -211q0 -168 -138 -273.5t-354 -105.5h-127v334h61q65 0 106.5 31.5t41.5 80.5t-41.5 81t-106.5 32h-61v301h2q61 0 101 30.5t40 76.5 q0 47 -38 76.5t-103 29.5q-63 0 -103 -33t-40 -92v-948h-396z" />
<glyph unicode="&#xe0;" horiz-adv-x="1202" d="M47 313q0 154 131.5 253.5t325.5 99.5q105 0 223 -48v7q0 76 -61 121t-156 45q-70 0 -126 -17t-130 -55l-121 239q248 125 483 125q135 0 245.5 -53t177.5 -159t67 -246v-625h-379v76q-110 -101 -272 -101q-173 0 -290.5 95.5t-117.5 242.5zM279 1454l339 57l230 -335 h-258zM422 324q0 -51 36 -83t93 -32q71 0 120.5 29t55.5 75v101q-66 32 -168 32q-60 0 -98.5 -34t-38.5 -88z" />
<glyph unicode="&#xe1;" horiz-adv-x="1202" d="M47 313q0 154 131.5 253.5t325.5 99.5q105 0 223 -48v7q0 76 -61 121t-156 45q-70 0 -126 -17t-130 -55l-121 239q248 125 483 125q135 0 245.5 -53t177.5 -159t67 -246v-625h-379v76q-110 -101 -272 -101q-173 0 -290.5 95.5t-117.5 242.5zM381 1176l229 335l340 -57 l-311 -278h-258zM422 324q0 -51 36 -83t93 -32q71 0 120.5 29t55.5 75v101q-66 32 -168 32q-60 0 -98.5 -34t-38.5 -88z" />
<glyph unicode="&#xe2;" horiz-adv-x="1202" d="M47 313q0 154 131.5 253.5t325.5 99.5q105 0 223 -48v7q0 76 -61 121t-156 45q-70 0 -126 -17t-130 -55l-121 239q248 125 483 125q135 0 245.5 -53t177.5 -159t67 -246v-625h-379v76q-110 -101 -272 -101q-173 0 -290.5 95.5t-117.5 242.5zM246 1176l221 315h317 l224 -315h-232l-151 137l-150 -137h-229zM422 324q0 -51 36 -83t93 -32q71 0 120.5 29t55.5 75v101q-66 32 -168 32q-60 0 -98.5 -34t-38.5 -88z" />
<glyph unicode="&#xe3;" horiz-adv-x="1202" d="M47 313q0 154 131.5 253.5t325.5 99.5q105 0 223 -48v7q0 76 -61 121t-156 45q-70 0 -126 -17t-130 -55l-121 239q248 125 483 125q135 0 245.5 -53t177.5 -159t67 -246v-625h-379v76q-110 -101 -272 -101q-173 0 -290.5 95.5t-117.5 242.5zM233 1194q17 148 77 218.5 t171 70.5q48 0 104.5 -21t102.5 -42t66 -21q57 0 75 86l185 -27q-15 -147 -75.5 -218t-172.5 -71q-49 0 -105 21t-101 42t-66 21q-59 0 -76 -86zM422 324q0 -51 36 -83t93 -32q71 0 120.5 29t55.5 75v101q-66 32 -168 32q-60 0 -98.5 -34t-38.5 -88z" />
<glyph unicode="&#xe4;" horiz-adv-x="1202" d="M47 313q0 154 131.5 253.5t325.5 99.5q105 0 223 -48v7q0 76 -61 121t-156 45q-70 0 -126 -17t-130 -55l-121 239q248 125 483 125q135 0 245.5 -53t177.5 -159t67 -246v-625h-379v76q-110 -101 -272 -101q-173 0 -290.5 95.5t-117.5 242.5zM217 1356q0 72 51.5 124 t126.5 52q72 0 124 -52.5t52 -123.5q0 -73 -52 -125.5t-124 -52.5q-76 0 -127 52t-51 126zM422 324q0 -51 36 -83t93 -32q71 0 120.5 29t55.5 75v101q-66 32 -168 32q-60 0 -98.5 -34t-38.5 -88zM678 1356q0 71 52 123.5t126 52.5q73 0 124.5 -52.5t51.5 -123.5 q0 -74 -51.5 -126t-124.5 -52q-75 0 -126.5 52t-51.5 126z" />
<glyph unicode="&#xe5;" horiz-adv-x="1202" d="M47 313q0 154 131.5 253.5t325.5 99.5q105 0 223 -48v7q0 76 -61 121t-156 45q-70 0 -126 -17t-130 -55l-121 239q248 125 483 125q135 0 245.5 -53t177.5 -159t67 -246v-625h-379v76q-110 -101 -272 -101q-173 0 -290.5 95.5t-117.5 242.5zM377 1425q0 102 73 175 t175 73q103 0 175 -72.5t72 -175.5t-72 -175t-175 -72q-102 0 -175 72.5t-73 174.5zM422 324q0 -51 36 -83t93 -32q71 0 120.5 29t55.5 75v101q-66 32 -168 32q-60 0 -98.5 -34t-38.5 -88zM524 1425q0 -41 30 -70.5t71 -29.5t70.5 29.5t29.5 70.5t-29.5 71t-70.5 30t-71 -30 t-30 -71z" />
<glyph unicode="&#xe6;" horiz-adv-x="1880" d="M47 313q0 154 131.5 253.5t325.5 99.5q105 0 223 -48v7q0 69 -57 107t-160 38q-134 0 -252 -59l-125 247q129 65 224.5 95t217.5 30q103 0 189.5 -34.5t144.5 -96.5q150 131 377 131q255 0 398 -170.5t143 -476.5h-750q24 -76 79.5 -121t129.5 -45q124 0 236 88l217 -219 q-71 -72 -193 -118t-243 -46q-237 0 -396 140q-128 -140 -391 -140q-206 0 -337.5 94.5t-131.5 243.5zM430 324q0 -42 33.5 -68.5t87.5 -26.5q83 0 129.5 27.5t46.5 77.5v53q-73 39 -168 39q-57 0 -93 -29t-36 -73zM1083 643h385q-22 67 -70 106t-112 39q-69 0 -122.5 -39 t-80.5 -106z" />
<glyph unicode="&#xe7;" horiz-adv-x="1130" d="M55 530q0 148 81.5 275.5t220 202.5t298.5 75q137 0 249.5 -52t191.5 -144l-260 -213q-31 36 -83 59t-102 23q-89 0 -154 -66.5t-65 -157.5q0 -94 65 -161.5t156 -67.5q51 0 104 23.5t85 60.5l260 -209q-150 -173 -373 -198l-29 -66q67 -3 108.5 -42.5t41.5 -98.5 q0 -85 -65.5 -134t-170.5 -49q-57 0 -111 17.5t-91 44.5l63 139q57 -47 119 -47q31 0 52.5 13.5t21.5 37.5q0 21 -15.5 33t-42.5 12q-29 0 -55 -16l-53 49l47 111q-209 36 -351.5 191.5t-142.5 354.5z" />
<glyph unicode="&#xe8;" horiz-adv-x="1208" d="M55 532q0 243 156.5 397t402.5 154q255 0 398 -170.5t143 -476.5h-749q24 -76 79 -121t129 -45q124 0 236 88l217 -219q-71 -72 -193 -118t-243 -46q-253 0 -414.5 156t-161.5 401zM268 1454l340 57l230 -335h-258zM412 643h385q-22 67 -70.5 106t-112.5 39 q-69 0 -122 -39t-80 -106z" />
<glyph unicode="&#xe9;" horiz-adv-x="1208" d="M55 532q0 243 156.5 397t402.5 154q255 0 398 -170.5t143 -476.5h-749q24 -76 79 -121t129 -45q124 0 236 88l217 -219q-71 -72 -193 -118t-243 -46q-253 0 -414.5 156t-161.5 401zM371 1176l229 335l340 -57l-311 -278h-258zM412 643h385q-22 67 -70.5 106t-112.5 39 q-69 0 -122 -39t-80 -106z" />
<glyph unicode="&#xea;" horiz-adv-x="1208" d="M55 532q0 243 156.5 397t402.5 154q255 0 398 -170.5t143 -476.5h-749q24 -76 79 -121t129 -45q124 0 236 88l217 -219q-71 -72 -193 -118t-243 -46q-253 0 -414.5 156t-161.5 401zM236 1176l221 315h317l223 -315h-231l-152 137l-149 -137h-229zM412 643h385 q-22 67 -70.5 106t-112.5 39q-69 0 -122 -39t-80 -106z" />
<glyph unicode="&#xeb;" horiz-adv-x="1208" d="M55 532q0 243 156.5 397t402.5 154q255 0 398 -170.5t143 -476.5h-749q24 -76 79 -121t129 -45q124 0 236 88l217 -219q-71 -72 -193 -118t-243 -46q-253 0 -414.5 156t-161.5 401zM207 1356q0 72 51.5 124t126.5 52q72 0 124 -52.5t52 -123.5q0 -73 -52 -125.5 t-124 -52.5q-76 0 -127 52t-51 126zM412 643h385q-22 67 -70.5 106t-112.5 39q-69 0 -122 -39t-80 -106zM668 1356q0 71 52 123.5t126 52.5q73 0 124.5 -52.5t51.5 -123.5q0 -74 -51.5 -126t-124.5 -52q-75 0 -126.5 52t-51.5 126z" />
<glyph unicode="&#xec;" horiz-adv-x="622" d="M-129 1454l340 57l229 -335h-258zM113 0v1059h395v-1059h-395z" />
<glyph unicode="&#xed;" horiz-adv-x="622" d="M113 0v1059h395v-1059h-395zM178 1176l230 335l340 -57l-312 -278h-258z" />
<glyph unicode="&#xee;" horiz-adv-x="622" d="M-68 1176l222 315h317l223 -315h-231l-152 137l-149 -137h-230zM113 0v1059h395v-1059h-395z" />
<glyph unicode="&#xef;" horiz-adv-x="622" d="M-96 1356q0 72 51.5 124t126.5 52q72 0 124 -52.5t52 -123.5q0 -73 -52 -125.5t-124 -52.5q-76 0 -127 52t-51 126zM113 0v1059h395v-1059h-395zM365 1356q0 71 52 123.5t126 52.5q73 0 124.5 -52.5t51.5 -123.5q0 -74 -51.5 -126t-124.5 -52q-75 0 -126.5 52t-51.5 126z " />
<glyph unicode="&#xf0;" horiz-adv-x="1300" d="M72 514q0 217 126 355.5t324 138.5q171 0 293 -138q-65 130 -227 263l-191 -86l-80 180l89 39q-25 17 -75.5 49t-58.5 37l344 147q15 -12 54 -42t59 -46l172 76l80 -180l-88 -39q179 -169 261.5 -326.5t82.5 -351.5q0 -270 -164 -442.5t-420 -172.5q-255 0 -418 151.5 t-163 387.5zM449 500q0 -86 57.5 -140.5t148.5 -54.5t148 54t57 139q0 84 -57 139t-150 55q-91 0 -147.5 -53.5t-56.5 -138.5z" />
<glyph unicode="&#xf1;" horiz-adv-x="1286" d="M104 0v1059h396v-107q50 62 127.5 96.5t171.5 34.5q170 0 279.5 -114.5t109.5 -294.5v-674h-377v582q0 77 -45 125.5t-115 48.5q-66 0 -108.5 -45.5t-42.5 -116.5v-594h-396zM270 1194q17 148 77 218.5t171 70.5q48 0 104.5 -21t102.5 -42t66 -21q57 0 75 86l185 -27 q-15 -147 -75.5 -218t-172.5 -71q-49 0 -105 21t-101.5 42t-66.5 21q-58 0 -75 -86z" />
<glyph unicode="&#xf2;" horiz-adv-x="1302" d="M55 530q0 148 81 275.5t219 202.5t298 75q159 0 296.5 -75t218.5 -202.5t81 -275.5t-81 -276t-218.5 -203.5t-296.5 -75.5q-160 0 -298 75.5t-219 203.5t-81 276zM307 1454l340 57l230 -335h-259zM424 530q0 -92 67.5 -159.5t161.5 -67.5q92 0 160 67.5t68 159.5t-68 159 t-160 67q-94 0 -161.5 -67t-67.5 -159z" />
<glyph unicode="&#xf3;" horiz-adv-x="1302" d="M55 530q0 148 81 275.5t219 202.5t298 75q159 0 296.5 -75t218.5 -202.5t81 -275.5t-81 -276t-218.5 -203.5t-296.5 -75.5q-160 0 -298 75.5t-219 203.5t-81 276zM410 1176l229 335l340 -57l-311 -278h-258zM424 530q0 -92 67.5 -159.5t161.5 -67.5q92 0 160 67.5 t68 159.5t-68 159t-160 67q-94 0 -161.5 -67t-67.5 -159z" />
<glyph unicode="&#xf4;" horiz-adv-x="1302" d="M55 530q0 148 81 275.5t219 202.5t298 75q159 0 296.5 -75t218.5 -202.5t81 -275.5t-81 -276t-218.5 -203.5t-296.5 -75.5q-160 0 -298 75.5t-219 203.5t-81 276zM274 1176l222 315h317l223 -315h-231l-152 137l-149 -137h-230zM424 530q0 -92 67.5 -159.5t161.5 -67.5 q92 0 160 67.5t68 159.5t-68 159t-160 67q-94 0 -161.5 -67t-67.5 -159z" />
<glyph unicode="&#xf5;" horiz-adv-x="1302" d="M55 530q0 148 81 275.5t219 202.5t298 75q159 0 296.5 -75t218.5 -202.5t81 -275.5t-81 -276t-218.5 -203.5t-296.5 -75.5q-160 0 -298 75.5t-219 203.5t-81 276zM262 1194q17 148 77 218.5t171 70.5q48 0 104.5 -21t102 -42t65.5 -21q58 0 76 86l184 -27 q-15 -147 -75 -218t-172 -71q-49 0 -105 21t-101.5 42t-66.5 21q-59 0 -76 -86zM424 530q0 -92 67.5 -159.5t161.5 -67.5q92 0 160 67.5t68 159.5t-68 159t-160 67q-94 0 -161.5 -67t-67.5 -159z" />
<glyph unicode="&#xf6;" horiz-adv-x="1302" d="M55 530q0 148 81 275.5t219 202.5t298 75q159 0 296.5 -75t218.5 -202.5t81 -275.5t-81 -276t-218.5 -203.5t-296.5 -75.5q-160 0 -298 75.5t-219 203.5t-81 276zM246 1356q0 72 51.5 124t126.5 52q72 0 124 -52.5t52 -123.5q0 -73 -52 -125.5t-124 -52.5q-76 0 -127 52 t-51 126zM424 530q0 -92 67.5 -159.5t161.5 -67.5q92 0 160 67.5t68 159.5t-68 159t-160 67q-94 0 -161.5 -67t-67.5 -159zM707 1356q0 71 52 123.5t126 52.5q73 0 124.5 -52.5t51.5 -123.5q0 -74 -51.5 -126t-124.5 -52q-75 0 -126.5 52t-51.5 126z" />
<glyph unicode="&#xf7;" horiz-adv-x="1247" d="M113 532v306h1022v-306h-1022zM424 266q0 79 60 138t145 59q81 0 138.5 -59t57.5 -138q0 -85 -57 -145t-139 -60q-86 0 -145.5 60t-59.5 145zM424 1110q0 79 60 138t145 59q81 0 138.5 -59t57.5 -138q0 -85 -57 -145t-139 -60q-86 0 -145.5 60t-59.5 145z" />
<glyph unicode="&#xf8;" horiz-adv-x="1302" d="M55 530q0 148 81 275.5t219 202.5t298 75q158 0 295 -73l43 49h246l-141 -162q153 -160 153 -367q0 -148 -81 -276t-218.5 -203.5t-296.5 -75.5q-156 0 -295 74l-43 -49h-245l141 162q-73 75 -114.5 170.5t-41.5 197.5zM424 530q0 -50 22 -96l273 311q-37 11 -66 11 q-94 0 -161.5 -67t-67.5 -159zM588 313q33 -10 65 -10q92 0 160 67.5t68 159.5q0 47 -23 95z" />
<glyph unicode="&#xf9;" horiz-adv-x="1286" d="M98 385v674h377v-582q0 -77 45 -125.5t115 -48.5q66 0 108.5 45.5t42.5 116.5v594h396v-1059h-396v106q-50 -62 -127.5 -96.5t-171.5 -34.5q-170 0 -279.5 115t-109.5 295zM293 1454l340 57l229 -335h-258z" />
<glyph unicode="&#xfa;" horiz-adv-x="1286" d="M98 385v674h377v-582q0 -77 45 -125.5t115 -48.5q66 0 108.5 45.5t42.5 116.5v594h396v-1059h-396v106q-50 -62 -127.5 -96.5t-171.5 -34.5q-170 0 -279.5 115t-109.5 295zM395 1176l230 335l340 -57l-312 -278h-258z" />
<glyph unicode="&#xfb;" horiz-adv-x="1286" d="M98 385v674h377v-582q0 -77 45 -125.5t115 -48.5q66 0 108.5 45.5t42.5 116.5v594h396v-1059h-396v106q-50 -62 -127.5 -96.5t-171.5 -34.5q-170 0 -279.5 115t-109.5 295zM260 1176l221 315h318l223 -315h-231l-152 137l-150 -137h-229z" />
<glyph unicode="&#xfc;" horiz-adv-x="1286" d="M98 385v674h377v-582q0 -77 45 -125.5t115 -48.5q66 0 108.5 45.5t42.5 116.5v594h396v-1059h-396v106q-50 -62 -127.5 -96.5t-171.5 -34.5q-170 0 -279.5 115t-109.5 295zM231 1356q0 72 52 124t127 52q72 0 124 -52.5t52 -123.5q0 -73 -52 -125.5t-124 -52.5 q-76 0 -127.5 52t-51.5 126zM692 1356q0 71 52 123.5t126 52.5q73 0 125 -52.5t52 -123.5q0 -74 -52 -126t-125 -52q-75 0 -126.5 52t-51.5 126z" />
<glyph unicode="&#xfd;" horiz-adv-x="1243" d="M10 1059h404l217 -653l205 653h397l-399 -1067q-65 -170 -176 -265.5t-246 -95.5q-80 0 -173 24t-157 62l80 254q99 -59 149 -59q36 0 67 9.5t40 23.5l20 41zM387 1176l229 335l340 -57l-311 -278h-258z" />
<glyph unicode="&#xfe;" horiz-adv-x="1380" d="M104 -352v1784h396v-498q133 149 338 149q214 0 349.5 -155t135.5 -398q0 -245 -135.5 -400t-349.5 -155q-204 0 -338 150v-477h-396zM500 530q0 -100 59.5 -163.5t153.5 -63.5q103 0 168 63.5t65 163.5q0 99 -65.5 162.5t-167.5 63.5q-93 0 -153 -63.5t-60 -162.5z" />
<glyph unicode="&#xff;" horiz-adv-x="1243" d="M10 1059h404l217 -653l205 653h397l-399 -1067q-65 -170 -176 -265.5t-246 -95.5q-80 0 -173 24t-157 62l80 254q99 -59 149 -59q36 0 67 9.5t40 23.5l20 41zM223 1356q0 72 51.5 124t126.5 52q72 0 124.5 -52.5t52.5 -123.5q0 -73 -52.5 -125.5t-124.5 -52.5 q-76 0 -127 52t-51 126zM684 1356q0 71 52 123.5t126 52.5q73 0 124.5 -52.5t51.5 -123.5q0 -74 -51.5 -126t-124.5 -52q-75 0 -126.5 52t-51.5 126z" />
<glyph unicode="&#x152;" horiz-adv-x="2142" d="M70 705q0 145 61.5 276t165 224t244.5 147.5t295 54.5h1228v-354h-735v-158h670v-354h-670v-187h735v-354h-1228q-154 0 -295 55t-244.5 149t-165 225t-61.5 276zM479 705q0 -148 105 -246.5t252 -98.5h96v687h-96q-147 0 -252 -97.5t-105 -244.5z" />
<glyph unicode="&#x153;" horiz-adv-x="2043" d="M55 530q0 148 81 275.5t219 202.5t298 75q114 0 217.5 -38.5t184.5 -108.5q153 147 395 147q255 0 398 -170.5t143 -476.5h-750q24 -76 79.5 -121t129.5 -45q124 0 236 88l217 -219q-71 -72 -193.5 -118t-243.5 -46q-248 0 -409 152q-81 -72 -185.5 -112t-218.5 -40 q-160 0 -298 75.5t-219 203.5t-81 276zM424 530q0 -92 67.5 -159.5t161.5 -67.5q92 0 160 67.5t68 159.5t-68 159t-160 67q-94 0 -161.5 -67t-67.5 -159zM1247 643h385q-22 67 -70 106t-112 39q-69 0 -122.5 -39t-80.5 -106z" />
<glyph unicode="&#x178;" horiz-adv-x="1452" d="M-12 1407h454l285 -571l301 571h436l-538 -944v-463h-398v463zM319 1704q0 72 52 124t127 52q72 0 124 -52.5t52 -123.5q0 -73 -52 -125.5t-124 -52.5q-76 0 -127.5 52t-51.5 126zM780 1704q0 71 52 123.5t126 52.5q73 0 125 -52.5t52 -123.5q0 -74 -52 -126t-125 -52 q-75 0 -126.5 52t-51.5 126z" />
<glyph unicode="&#x2c6;" horiz-adv-x="1019" d="M129 1176l221 315h318l223 -315h-232l-151 137l-150 -137h-229z" />
<glyph unicode="&#x2dc;" horiz-adv-x="899" d="M59 1194q17 148 77 218.5t171 70.5q48 0 104.5 -21t102.5 -42t66 -21q57 0 75 86l185 -27q-15 -147 -75.5 -218t-172.5 -71q-49 0 -105 21t-101.5 42t-66.5 21q-58 0 -75 -86z" />
<glyph unicode="&#x2000;" horiz-adv-x="1010" />
<glyph unicode="&#x2001;" horiz-adv-x="2021" />
<glyph unicode="&#x2002;" horiz-adv-x="1010" />
<glyph unicode="&#x2003;" horiz-adv-x="2021" />
<glyph unicode="&#x2004;" horiz-adv-x="673" />
<glyph unicode="&#x2005;" horiz-adv-x="505" />
<glyph unicode="&#x2006;" horiz-adv-x="336" />
<glyph unicode="&#x2007;" horiz-adv-x="336" />
<glyph unicode="&#x2008;" horiz-adv-x="252" />
<glyph unicode="&#x2009;" horiz-adv-x="404" />
<glyph unicode="&#x200a;" horiz-adv-x="112" />
<glyph unicode="&#x2010;" horiz-adv-x="737" d="M78 408v323h581v-323h-581z" />
<glyph unicode="&#x2011;" horiz-adv-x="737" d="M78 408v323h581v-323h-581z" />
<glyph unicode="&#x2012;" horiz-adv-x="737" d="M78 408v323h581v-323h-581z" />
<glyph unicode="&#x2013;" horiz-adv-x="1161" d="M78 410v319h1005v-319h-1005z" />
<glyph unicode="&#x2014;" horiz-adv-x="1785" d="M78 410v319h1630v-319h-1630z" />
<glyph unicode="&#x2018;" horiz-adv-x="638" d="M80 991q0 113 67.5 231.5t188.5 219.5l129 -99q-108 -85 -137 -194q92 0 158.5 -69.5t66.5 -164.5q0 -98 -68.5 -168.5t-162.5 -70.5q-106 0 -174 88.5t-68 226.5z" />
<glyph unicode="&#x2019;" horiz-adv-x="638" d="M86 1204q0 98 68.5 169t162.5 71q106 0 174 -89t68 -227q0 -112 -67 -230.5t-189 -219.5l-129 98q108 85 137 195q-92 0 -158.5 69t-66.5 164z" />
<glyph unicode="&#x201c;" horiz-adv-x="1253" d="M80 991q0 113 67.5 231.5t188.5 219.5l129 -99q-108 -85 -137 -194q92 0 158.5 -69.5t66.5 -164.5q0 -98 -68.5 -168.5t-162.5 -70.5q-106 0 -174 88.5t-68 226.5zM694 991q0 113 67.5 231.5t188.5 219.5l129 -99q-108 -85 -137 -194q92 0 158.5 -69.5t66.5 -164.5 q0 -98 -68.5 -168.5t-162.5 -70.5q-106 0 -174 88.5t-68 226.5z" />
<glyph unicode="&#x201d;" horiz-adv-x="1253" d="M86 1204q0 98 68.5 169t162.5 71q106 0 174 -89t68 -227q0 -112 -67 -230.5t-189 -219.5l-129 98q108 85 137 195q-92 0 -158.5 69t-66.5 164zM700 1204q0 98 69 169t163 71q106 0 174 -89t68 -227q0 -112 -67 -230.5t-189 -219.5l-130 98q109 86 138 195q-92 0 -159 69 t-67 164z" />
<glyph unicode="&#x2026;" horiz-adv-x="1873" d="M86 217q0 94 70.5 163t171.5 69q94 0 162.5 -69.5t68.5 -162.5q0 -100 -68 -171t-163 -71q-102 0 -172 71t-70 171zM700 217q0 94 70.5 163t171.5 69q95 0 163.5 -69.5t68.5 -162.5q0 -100 -68.5 -171t-163.5 -71q-102 0 -172 71t-70 171zM1315 217q0 94 70 163t171 69 q95 0 163.5 -69.5t68.5 -162.5q0 -100 -68.5 -171t-163.5 -71q-102 0 -171.5 70.5t-69.5 171.5z" />
<glyph unicode="&#x202f;" horiz-adv-x="404" />
<glyph unicode="&#x205f;" horiz-adv-x="505" />
<glyph unicode="&#x20ac;" horiz-adv-x="1445" d="M-23 506v158h95q-2 14 -2 41q0 39 2 57h-95v158h127q76 223 279 367.5t453 144.5q166 0 314.5 -66t256.5 -182l-293 -256q-51 66 -124 104.5t-154 38.5q-85 0 -161 -40.5t-126 -110.5h383v-158h-449q-4 -36 -4 -57q0 -27 2 -41h451v-158h-395q51 -78 129.5 -124 t169.5 -46q82 0 154.5 38t125.5 105l291 -254q-108 -117 -256.5 -183.5t-314.5 -66.5q-255 0 -460.5 150.5t-275.5 380.5h-123z" />
<glyph unicode="&#x25fc;" horiz-adv-x="1054" d="M0 0v1055h1055v-1055h-1055z" />
</font>
</defs>
</svg>
